Samsung Galaxy Tab Sample Videos, Specifications, Original Download

Posted on 19 October 2010, Last updated on 19 October 2010 by

I messed up! Many Tab owners will end up doing the same too because of the position of the built-in mic. When taking videos in a classic ‘mirrored looser’ hand shape you need to be careful. Here’s the effect in my first video uploaded direct from the Galaxy Tab.

Note the muffled video then watch this one. Much better! The quality is actually quite good. It’s H.264 at 720×480 with a 64kbps AAC soundtrack for a total 4.2mbps bitrate. That’s why you don’t see any ripping or wobbly effects. The original file is even better. Bear in mind this one was taken in difficult conditions. I could make a much better video in sunlight! The LED lamp helps though. File analysis from KMPlayer included below.

The question remains though – why not 720p? Continuous auto-focus would have been nice too.

File details. (Download original here) Can someone explain why this is marked as NTSC? I thought that was for analogue format, not digital.
Format : MPEG-4
Format profile : 3GPP Media Release 4
Codec ID : 3gp4
File size : 40.6 MiB
Duration : 1mn 20s
Overall bit rate : 4 239 Kbps
Video #2
Format : AVC
Format/Info : Advanced Video Codec
Format profile : Baseline@L3.0
Format settings, CABAC : No
Format settings, ReFrames : 1 frame
Muxing mode : Container profile=Unknown@12.3
Codec ID : avc1
Codec ID/Info : Advanced Video Coding
Duration : 1mn 20s
Bit rate mode : Variable
Bit rate : 4 173 Kbps
Width : 720 pixels
Height : 480 pixels
Display aspect ratio : 1.500
Frame rate mode : Variable
Frame rate : 29.804 fps
Minimum frame rate : 6.211 fps
Maximum frame rate : 1 000.000 fps
Standard : NTSC
Resolution : 24 bits
Colorimetry : 4:2:0
Scan type : Progressive
Bits/(Pixel*Frame) : 0.405
Stream size : 40.0 MiB (98%)
Audio #1
Format : AAC
Format/Info : Advanced Audio Codec
Format version : Version 4
Format profile : LC
Format settings, SBR : No
Codec ID : 40
Duration : 1mn 20s
Bit rate mode : Variable
Bit rate : 62.4 Kbps
Maximum bit rate : 67.4 Kbps
Channel(s) : 1 channel
Channel positions : C
Sampling rate : 16.0 KHz
Resolution : 16 bits
Stream size : 609 KiB (1%)

Recommended Reading

Top Ultra Mobile PCs

Dell Latitude E7440
14.0" Intel Core i5-4200U
Viliv S5
4.8" Intel Atom (Silverthorne)
HP Chromebook 11 G3
11.6" Intel Celeron N2830
GPD Win 2
6.0" Intel m3 7Y30
Toshiba Portege Z930
13.3" Intel Core i5 3427U
Acer Aspire Switch 10
10.1" Intel Atom Z3745
GPD Pocket 2
7.0" Intel Core m3-8100Y
Lenovo Ideapad Flex 10
10.1" Intel Celeron N2806
Acer Aspire E11 ES1
11.6" Intel Celeron N2840
Medion Akoya P2212T
11.6" Intel Celeron N2920